Most Wanted Softwares February 2012 | Sufian Suhaimi - Di Matamu (Official Music Video with Lyric) HD | Another Soul
logo

Machine Gun Preacher (2011) Gerard Butler.H264.italian.english.Ac...

  • Category Movies
  • Type h.264/x264
  • Language English
  • Total size 2.0 GB
  • Uploaded By robbyrs
  • Downloads 686
  • Last checked 1 day ago
  • Date uploaded 1 month ago
  • Seeders 21
  • Leechers 2

Infohash : 759804AC23F463C93DD7C98CBE1A94B5928B5620

Machine Gun Preacher (2011) Gerard Butler.H264.italian.english.Ac3-5.1.sub.ita.NUita.MIRCrew

Download Machine Gun Preacher (2011) Gerard Butler.H264.italian.english.Ac3-5.1.sub.ita.NUita.MIRCrew Torrent
NO FOUND ONLY ORIGINAL RELEASE

Download Machine Gun Preacher (2011) Gerard Butler.H264.italian.english.Ac3-5.1.sub.ita.NUita.MIRCrew Torrent



My release is always in double track audio italian and Original audio
for select it use VLC or dvd player home
not use wmp

Machine Gun Preacher (2011)

PRESENTI SOTTOTITOLI ITALIANI PER NON UDENTI

Download Machine Gun Preacher (2011) Gerard Butler.H264.italian.english.Ac3-5.1.sub.ita.NUita.MIRCrew Torrent

Download Machine Gun Preacher (2011) Gerard Butler.H264.italian.english.Ac3-5.1.sub.ita.NUita.MIRCrew Torrent

Download Machine Gun Preacher (2011) Gerard Butler.H264.italian.english.Ac3-5.1.sub.ita.NUita.MIRCrew Torrent

Titolo originale Machine Gun Preacher
Lingua originale inglese
Paese di produzione USA
Anno 2011
Durata 129 min
Rapporto 2,35:1
Genere azione, drammatico, biografico
Regia Marc Forster
Sceneggiatura Jason Keller
Produttore Robbie Brenner, Deborah Giarratana, Craig Chapman, Gary Safady
Casa di produzione Relativity Media, Apparatus, Safady Entertainment, 1984 Private Defense Contractors, Mpower Pictures
Fotografia Roberto Schaefer
Montaggio Matt Chesse
Scenografia Philip Messina
Costumi Frank L. Fleming

Download Machine Gun Preacher (2011) Gerard Butler.H264.italian.english.Ac3-5.1.sub.ita.NUita.MIRCrew Torrent

Gerard Butler: Sam Childers
Michelle Monaghan: Lynn Childers
Michael Shannon: Donnie
Kathy Baker: Daisy

Download Machine Gun Preacher (2011) Gerard Butler.H264.italian.english.Ac3-5.1.sub.ita.NUita.MIRCrew Torrent

Sam Childers รจ un ex-motociclista e un ex-tossicodipendente che, dopo la sua importante e profonda conversione, ha intrapreso azioni umanitarie per aiutare i tanti bambini reduci delle guerre del Sudan..........

Download Machine Gun Preacher (2011) Gerard Butler.H264.italian.english.Ac3-5.1.sub.ita.NUita.MIRCrew Torrent

Sam Childers is a former drug-dealing biker tough guy who found God and became a crusader for hundreds of Sudanese children who've been forced to become soldiers. ..........

Download Machine Gun Preacher (2011) Gerard Butler.H264.italian.english.Ac3-5.1.sub.ita.NUita.MIRCrew Torrent

Download Machine Gun Preacher (2011) Gerard Butler.H264.italian.english.Ac3-5.1.sub.ita.NUita.MIRCrew Torrent
Download Machine Gun Preacher (2011) Gerard Butler.H264.italian.english.Ac3-5.1.sub.ita.NUita.MIRCrew Torrent
Download Machine Gun Preacher (2011) Gerard Butler.H264.italian.english.Ac3-5.1.sub.ita.NUita.MIRCrew Torrent
Download Machine Gun Preacher (2011) Gerard Butler.H264.italian.english.Ac3-5.1.sub.ita.NUita.MIRCrew Torrent
Download Machine Gun Preacher (2011) Gerard Butler.H264.italian.english.Ac3-5.1.sub.ita.NUita.MIRCrew Torrent


Download Machine Gun Preacher (2011) Gerard Butler.H264.italian.english.Ac3-5.1.sub.ita.NUita.MIRCrew Torrent

[spoiler]
General
Unique ID : 61084821242877100226531984964736447687 (0x2DF48236183F46EDEE8E33619ABEF4C7)
Complete name : C:\Users\robby\Desktop\Machine Gun Preacher (2011).ita.eng.sub.ita.NUita.MIRCrew\Machine Gun Preacher (2011).ita.eng.sub.ita.NUita.MIRCrew.mkv
Format : Matroska
Format version : Version 2
File size : 1.98 GiB
Duration : 2h 8mn
Overall bit rate : 2 200 Kbps
Encoded date : UTC 2018-02-14T12:03:19Z
Writing application : HandBrake 0.10.5 2016021100
Writing library : Lavf55.12.0

Video
ID : 1
Format : AVC
Format/Info : Advanced Video Codec
Format profile : [email protected]
Format settings, CABAC : Yes
Format settings, ReFrames : 4 frames
Codec ID : V_MPEG4/ISO/AVC
Duration : 2h 8mn
Bit rate : 1 300 Kbps
Width : 688 pixels
Height : 288 pixels
Display aspect ratio : 2.40:1
Frame rate mode : Variable
Frame rate : 23.976 fps
Color space : YUV
Chroma subsampling : 4:2:0
Bit depth : 8 bits
Scan type : Progressive
Bits/(Pixel*Frame) : 0.274
Stream size : 1.13 GiB (57%)
Writing library : x264 core 142 r2479 dd79a61
Encoding settings : cabac=1 / ref=3 / deblock=1:0:0 / analyse=0x3:0x113 / me=hex / subme=7 / psy=1 / psy_rd=1.00:0.00 / mixed_ref=1 / me_range=16 / chroma_me=1 / trellis=1 / 8x8dct=1 / cqm=0 / deadzone=21,11 / fast_pskip=1 / chroma_qp_offset=-2 / threads=3 / lookahead_threads=1 / sliced_threads=0 / nr=0 / decimate=1 / interlaced=0 / bluray_compat=0 / constrained_intra=0 / bframes=3 / b_pyramid=2 / b_adapt=1 / b_bias=0 / direct=1 / weightb=1 / open_gop=0 / weightp=2 / keyint=240 / keyint_min=24 / scenecut=40 / intra_refresh=0 / rc_lookahead=40 / rc=abr / mbtree=1 / bitrate=1300 / ratetol=1.0 / qcomp=0.60 / qpmin=0 / qpmax=69 / qpstep=4 / vbv_maxrate=62500 / vbv_bufsize=78125 / nal_hrd=none / filler=0 / ip_ratio=1.40 / aq=1:1.00
Default : Yes
Forced : No
Color primaries : BT.601-6 525, BT.1358 525, BT.1700 NTSC, SMPTE 170M
Transfer characteristics : BT.709-5, BT.1361
Matrix coefficients : BT.601-6 525, BT.1358 525, BT.1700 NTSC, SMPTE 170M

Audio #1
ID : 2
Format : AC-3
Format/Info : Audio Coding 3
Mode extension : CM (complete main)
Codec ID : A_AC3
Duration : 2h 8mn
Bit rate mode : Constant
Bit rate : 448 Kbps
Channel(s) : 6 channels
Channel positions : Front: L C R, Side: L R, LFE
Sampling rate : 48.0 KHz
Bit depth : 16 bits
Compression mode : Lossy
Delay relative to video : 1mn 5s
Stream size : 413 MiB (20%)
Title : Surround
Default : Yes
Forced : No

Audio #2
ID : 3
Format : AC-3
Format/Info : Audio Coding 3
Mode extension : CM (complete main)
Codec ID : A_AC3
Duration : 2h 8mn
Bit rate mode : Constant
Bit rate : 448 Kbps
Channel(s) : 6 channels
Channel positions : Front: L C R, Side: L R, LFE
Sampling rate : 48.0 KHz
Bit depth : 16 bits
Compression mode : Lossy
Delay relative to video : 1mn 5s
Stream size : 413 MiB (20%)
Title : Surround
Default : No
Forced : No


[/spoiler]



Files:

Machine Gun Preacher (2011).ita.eng.sub.ita.NUita.MIRCrew
  • Machine Gun Preacher (2011).ita.eng.sub.ita.NUita.MIRCrew.ita.srt (95.6 KB)
  • Machine Gun Preacher (2011).ita.eng.sub.ita.NUita.MIRCrew.mkv (2.0 GB)
  • Machine Gun Preacher (2011).ita.eng.sub.ita.NUita.MIRCrew.NUita.srt (105.6 KB)
  • MIRCrew-ilCorSaRoNeRo.txt (0.1 KB)

There are currently no comments. Feel free to leave one :)

Code:

  • udp://tracker.coppersurfer.tk:6969/announce
  • udp://tracker.opentrackr.org:1337/announce
  • udp://tracker.pirateparty.gr:6969/announce
  • udp://tracker.zer0day.to:1337/announce
  • udp://p4p.arenabg.com:1337/announce
  • udp://p4p.arenabg.ch:1337/announce
  • udp://eddie4.nl:6969/announce
  • udp://tracker.leechers-paradise.org:6969/announce
  • udp://9.rarbg.me:2740/announce
  • udp://9.rarbg.to:2740/announce
  • udp://9.rarbg.com:2710/announce
  • udp://tracker.internetwarriors.net:1337/announce
  • udp://tracker.cyberia.is:6969/announce