Cosmopolitan Korea – 2018-06-01 | Tutorials | Martires
logo

Insidious The Last Key (2018) English(Line Audio) - HDRip - x264 ...

  • Category Movies
  • Type h.264/x264
  • Language English
  • Total size 1.2 GB
  • Uploaded By MovCr
  • Downloads 953
  • Last checked 1 day ago
  • Date uploaded 1 month ago
  • Seeders 4
  • Leechers 3

Infohash : A85B54406691ED57D7E41CCAC53AEA15E76F1BBB

http://movcr.com

Video
ID : 1
Format : MPEG-4 Visual
Format profile : Advanced [email protected]
Format settings : BVOP2 / Custom Matrix
Format settings, BVOP : 2
Format settings, QPel : No
Format settings, GMC : No warppoints
Format settings, Matrix : Custom
Codec ID : V_MS/VFW/FOURCC / XVID
Codec ID/Hint : XviD
Duration : 1 h 41 min
Bit rate : 1 535 kb/s
Width : 720 pixels
Height : 304 pixels
Display aspect ratio : 2.35:1
Frame rate mode : Constant
Frame rate : 23.976 (24000/1001) FPS
Color space : YUV
Chroma subsampling : 4:2:0
Bit depth : 8 bits
Scan type : Progressive
Compression mode : Lossy
Bits/(Pixel*Frame) : 0.292
Stream size : 1.08 GiB (92%)
Title : www.MovCr.com
Writing library : XviD 1.2.1 (UTC 2008-12-04)
Default : Yes
Forced : No

Audio
ID : 2
Format : AAC
Format/Info : Advanced Audio Codec
Format profile : LC
Codec ID : A_AAC-2
Duration : 1 h 41 min
Bit rate : 126 kb/s
Channel(s) : 2 channels
Channel positions : Front: L R
Sampling rate : 44.1 kHz
Frame rate : 43.066 FPS (1024 SPF)
Compression mode : Lossy
Stream size : 90.7 MiB (8%)
Title : www.MovCr.com
Language : English
Default : Yes
Forced : No



Download Insidious The Last Key (2018) English(Line Audio) - HDRip - x264 - 1.4GB - MovCr Torrent Download Insidious The Last Key (2018) English(Line Audio) - HDRip - x264 - 1.4GB - MovCr Torrent Download Insidious The Last Key (2018) English(Line Audio) - HDRip - x264 - 1.4GB - MovCr Torrent

Files:

  • [MovCr.com] - Insidious The Last Key (2018) English(Line Audio) - HDRip - x264 - 1.4GB - MovCr.mkv (1.2 GB)

There are currently no comments. Feel free to leave one :)

Code:

  • udp://tracker.openbittorrent.com:80/announce
  • udp://tracker.opentrackr.org:1337/announce