Erica Cerra | January 2013 (115) | Emmanuel Curtil
logo

Insidious The Last Key (2018) HDRip - x264 - Line Auds [Hindi + E...

  • Category Movies
  • Type h.264/x264
  • Language English
  • Total size 778.7 MB
  • Uploaded By MovCr
  • Downloads 1512
  • Last checked 2 days ago
  • Date uploaded 1 month ago
  • Seeders 7
  • Leechers 4

Infohash : 7EFC77F5A8AB3865AB2B8AF468D896B51B4984EC

http://movcr.com

Video
ID : 1
Format : AVC
Format/Info : Advanced Video Codec
Format profile : [email protected]
Format settings : CABAC / 4 Ref Frames
Format settings, CABAC : Yes
Format settings, ReFrames : 4 frames
Codec ID : V_MPEG4/ISO/AVC
Duration : 1 h 41 min
Bit rate : 870 kb/s
Width : 720 pixels
Height : 304 pixels
Display aspect ratio : 2.35:1
Frame rate mode : Constant
Frame rate : 23.976 (24000/1001) FPS
Color space : YUV
Chroma subsampling : 4:2:0
Bit depth : 8 bits
Scan type : Progressive
Bits/(Pixel*Frame) : 0.166
Stream size : 628 MiB (81%)
Title : www.MovCr.com
Writing library : x264 core 152 r2851 ba24899
Encoding settings : cabac=1 / ref=3 / deblock=1:0:0 / analyse=0x3:0x113 / me=hex / subme=7 / psy=1 / psy_rd=1.00:0.00 / mixed_ref=1 / me_range=16 / chroma_me=1 / trellis=1 / 8x8dct=1 / cqm=0 / deadzone=21,11 / fast_pskip=1 / chroma_qp_offset=-2 / threads=9 / lookahead_threads=1 / sliced_threads=0 / nr=0 / decimate=1 / interlaced=0 / bluray_compat=0 / constrained_intra=0 / bframes=3 / b_pyramid=2 / b_adapt=1 / b_bias=0 / direct=1 / weightb=1 / open_gop=0 / weightp=2 / keyint=240 / keyint_min=23 / scenecut=40 / intra_refresh=0 / rc_lookahead=40 / rc=2pass / mbtree=1 / bitrate=870 / ratetol=1.0 / qcomp=0.60 / qpmin=0 / qpmax=69 / qpstep=4 / cplxblur=20.0 / qblur=0.5 / ip_ratio=1.40 / aq=1:1.00
Language : Russian
Default : Yes
Forced : No

Audio #1
ID : 2
Format : MPEG Audio
Format version : Version 2
Format profile : Layer 3
Format settings : Joint stereo / Intensity Stereo + MS Stereo
Codec ID : A_MPEG/L3
Codec ID/Hint : MP3
Duration : 1 h 41 min
Bit rate mode : Constant
Bit rate : 80.0 kb/s
Channel(s) : 2 channels
Sampling rate : 22.05 kHz
Frame rate : 38.281 FPS (576 SPF)
Compression mode : Lossy
Stream size : 57.7 MiB (7%)
Title : www.MovCr.com
Language : Hindi
Default : Yes
Forced : No

Audio #2
ID : 3
Format : AAC
Format/Info : Advanced Audio Codec
Format profile : LC
Codec ID : A_AAC-2
Duration : 1 h 41 min
Bit rate : 126 kb/s
Channel(s) : 2 channels
Channel positions : Front: L R
Sampling rate : 44.1 kHz
Frame rate : 43.066 FPS (1024 SPF)
Compression mode : Lossy
Stream size : 90.7 MiB (12%)
Title : www.MovCr.com
Language : English
Default : No
Forced : No



Download Insidious The Last Key (2018) HDRip - x264 - Line Auds [Hindi + Eng] - 700MB - MovCr Torrent Download Insidious The Last Key (2018) HDRip - x264 - Line Auds [Hindi + Eng] - 700MB - MovCr Torrent Download Insidious The Last Key (2018) HDRip - x264 - Line Auds [Hindi + Eng] - 700MB - MovCr Torrent

Files:

  • [MovCr.com] - Insidious The Last Key (2018) HDRip - x264 - Line Auds [Hindi + Eng] - 700MB - MovCr.mkv (778.7 MB)

Comments

Code:

  • udp://tracker.openbittorrent.com:80/announce
  • udp://tracker.opentrackr.org:1337/announce