Grey's Anatomy S14E13 FRENCH HDTV | Ricki and the Flash | Les Tuche 3
logo

Insidious The Last Key (2018) HDRip - x264 - Line Auds [Hindi + T...

  • Category Movies
  • Type h.264/x264
  • Language English
  • Total size 1.3 GB
  • Uploaded By MovCr
  • Downloads 3017
  • Last checked 2 days ago
  • Date uploaded 1 month ago
  • Seeders 8
  • Leechers 3

Infohash : F8410EFC1F71169DDA3B04CD042D8251AEFC49D1

http://movcr.com

Video
ID : 1
Format : MPEG-4 Visual
Format profile : Advanced [email protected]
Format settings : BVOP2 / Custom Matrix
Format settings, BVOP : 2
Format settings, QPel : No
Format settings, GMC : No warppoints
Format settings, Matrix : Custom
Codec ID : V_MS/VFW/FOURCC / XVID
Codec ID/Hint : XviD
Duration : 1 h 41 min
Bit rate : 1 535 kb/s
Width : 720 pixels
Height : 304 pixels
Display aspect ratio : 2.35:1
Frame rate mode : Constant
Frame rate : 23.976 (24000/1001) FPS
Color space : YUV
Chroma subsampling : 4:2:0
Bit depth : 8 bits
Scan type : Progressive
Compression mode : Lossy
Bits/(Pixel*Frame) : 0.292
Stream size : 1.08 GiB (83%)
Title : www.MovCr.com
Writing library : XviD 1.2.1 (UTC 2008-12-04)
Default : Yes
Forced : No

Audio #1
ID : 2
Format : MPEG Audio
Format version : Version 2
Format profile : Layer 3
Format settings : Joint stereo / Intensity Stereo + MS Stereo
Codec ID : A_MPEG/L3
Codec ID/Hint : MP3
Duration : 1 h 41 min
Bit rate mode : Constant
Bit rate : 80.0 kb/s
Channel(s) : 2 channels
Sampling rate : 22.05 kHz
Frame rate : 38.281 FPS (576 SPF)
Compression mode : Lossy
Stream size : 57.7 MiB (4%)
Title : www.MovCr.com
Language : Hindi
Default : Yes
Forced : No

Audio #2
ID : 3
Format : MPEG Audio
Format version : Version 1
Format profile : Layer 3
Format settings : Joint stereo / MS Stereo
Codec ID : A_MPEG/L3
Codec ID/Hint : MP3
Duration : 1 h 41 min
Bit rate mode : Variable
Bit rate : 96.0 kb/s
Channel(s) : 2 channels
Sampling rate : 44.1 kHz
Frame rate : 38.281 FPS (1152 SPF)
Compression mode : Lossy
Stream size : 71.6 MiB (5%)
Title : www.MovCr.com
Writing library : LAME3.99r
Encoding settings : -m j -V 4 -q 3 -lowpass 15.1 --abr 96
Language : Tamil
Default : No
Forced : No

Audio #3
ID : 4
Format : AAC
Format/Info : Advanced Audio Codec
Format profile : LC
Codec ID : A_AAC-2
Duration : 1 h 41 min
Bit rate : 126 kb/s
Channel(s) : 2 channels
Channel positions : Front: L R
Sampling rate : 44.1 kHz
Frame rate : 43.066 FPS (1024 SPF)
Compression mode : Lossy
Stream size : 90.7 MiB (7%)
Title : www.MovCr.com
Language : English
Default : No
Forced : No



Download Insidious The Last Key (2018) HDRip - x264 - Line Auds [Hindi + Tamil + Eng] - 1.4GB - MovCr Torrent Download Insidious The Last Key (2018) HDRip - x264 - Line Auds [Hindi + Tamil + Eng] - 1.4GB - MovCr Torrent Download Insidious The Last Key (2018) HDRip - x264 - Line Auds [Hindi + Tamil + Eng] - 1.4GB - MovCr Torrent

Files:

  • [MovCr.com] - Insidious The Last Key (2018) HDRip - x264 - Line Auds [Hindi + Tamil + Eng] - 1.4GB - MovCr.mkv (1.3 GB)

Comments

Code:

  • udp://tracker.openbittorrent.com:80/announce
  • udp://tracker.opentrackr.org:1337/announce